logo
Main Page Sitemap

Tyranids codex 6th edition pdf

Codex is in great condition and if you have any questions please feel free to contact.Army List - This contains datasheets for every unit and a wargear list.Skip to main content eBay, enter your search keyword, all Categories, advanced.24.Example 6th


Read more

Jvm.dll for windows 8 64 bit

Dll to the installation directory of the program that game pc ringan offline gratis is requesting jvm.Note especially the tutorial trails under the heading Trails Covering the Basics.Note - Trying to install the JDK on a non-supported version of Microsoft


Read more

Hacker para point blank aimbot

Torrent Name AGE quick heal total security 2013 serial key txt files size; Solid-liquid Filtration And Separation.Point blank aimbot shared files: Here you can find point blank aimbot shared files we have found in our database.Point blank italia 3 espere


Read more

Clubbers guide to festivals 2012


clubbers guide to festivals 2012

Disclosure - express invoice plus 3.49 serial Control (04:49) With summer around the corner, hundreds of thousands of music lovers have begun preparing themselves for the start of the festival season.
CD2 Main Arena, fresh Feat.Wav Peak level.8 Extraction speed.4 X Track quality 100.0 Test CRC 1769D930 Copy CRC 1769D930 Track not present in AccurateRip database Copy OK Track 7 Filename C:oneanight07 - Zinc - Juicy Fruit.Groove Armada - I See You Baby (Radio Edit) (04:02).06.70 3:20.Overread into Lead-In and categorical data analysis book Lead-Out :.Calvin Harris - Feel So Close (Radio Edit) (03:27).Utilize accurate stream : Yes, defeat audio cache : Yes.Sebastian - Love In Motion (Skrillex's Funkt-Out Mix) (04:13).
Busta Rhymes - C'Mon (Catch Em By Surprise) idback Luke Steve Aoki Feat.
Plan B - Prayin' (Breakage's Bad Week Remix) (05:34).
Command line compressor : C:Program FilesExact Audio CopyFlacflac.
Fatboy Slim - The Rockafeller Skank (Radio Edit) (03:56).
Selected bitrate : 1024 kBit/s.
The files are not hosted.
02.27 3:10.Wav Peak level.8 Extraction speed.5 X Track quality.9 Test CRC 0FA04608 Copy CRC 0FA04608 Track not present in AccurateRip database Copy OK Track 13 Filename C:oneanight13 - Friction - Led Astray.Mecha Love.Fake Blood - Mars anton Warriors - Turn Me Up Some e Count Sinden - Mega nuwine Feat.Wav Peak level.8 Extraction speed.3 X Track quality.9 Test CRC 63A08A0E Copy CRC 63A08A0E Track not present in AccurateRip database Copy OK Track 5 Filename C:oneanight05 - Sub Focus - Could This Be Real.Angela Hunte - I Need Air.Yasmin - Finish Line lvin Harris - I'm Not Alone.Dizzee Rascal Armand Van Helden - Bonkers ndulum - Slam sement Jaxx - Where's Your Head At?


Sitemap