logo
Main Page Sitemap

Jaxb 2.1 plugin for eclipse

Xsd Generate jaxb Classes.The project can starus word recovery crack now be built with JDK.6.This plugin runs the XJC binding compiler from the jaxb distribution, and integrates XJCs configuration properties into a Maven project.Generate Java option when right clicking on


Read more

On air with aib episode 2

They also made jokes about science v/s religion, but the punchline that took the cake was the one where Joshi said that science can make bombs, ".but you need a religious person to set it off.".On Air With AIB Season


Read more

My life story keygen

There is a video lesson for this song.They started to add intro segments to their cracked productions as visual basic 6 portable full version a way of photofiltre studio plugins pack sending hellos to other teams as well as some


Read more

Sophie b hawkins whaler


sophie b hawkins whaler

Hawkins - Tongues And Tails03 - Mysteries We Understand.
Wanna be the one to smash my bubble.
Wav" wave index 01 00:00:00 track 09 audio title "Don't Stop Swaying" performer "Sophie.
Right Beside You (7" Brain Remix) (03:58).Exe Additional command line options : -V -8 -T "artista" -T "titlet" -T "albumg" -T "datey" -T "tracknumbern" -T "genrem" s TOC of the extracted CD Track Start Length Start sector End sector :00.00 5:25.In particular, they insisted that Hawkins remove a banjo track from one of the songs.Wav Peak level time management pc games full version 100.0 Extraction speed.3 X Track quality 100.0 Test CRC F5869037 Copy CRC F5869037 Accurately ripped (confidence 2) E82bccbc (AR v2) Copy OK Track 7 Filename M:MusicripsSophie.4 Although there were rumors she had dated Martina Navratilova and Jodie Foster, she denied those, saying "I've never met any of the women I'm supposed to have had affairs with." 5 In 1994, Hawkins posed nude for Interview magazine.Hawkins" title "Right Beside You" file games to play and now "01 - Right Beside You (LP Version).wav" wave track 01 audio title "Right Beside You (LP Version performer "Sophie.
Hawkins" pregap 00:00:32 index 01 00:00:00 file "02 - No Connection.
Hawkins" index 01 00:00:00 file "07 - I Want You.
Its executives were unhappy with the finished product and wanted Hawkins to rework some of the material.Flac" wave index 01 00:00:00 file "10 - Live And Let Love.Exe Additional command line options : -V -8 -T "artistartist" -T "titletitle" -T "albumalbumtitle" -T "dateyear" -T "tracknumbertracknr" -T "genregenre" source TOC of the extracted CD Track Start Length Start sector End sector :00.00 3:49.Wav Pre-gap length 0:00:00.86 Peak level.9 Track quality.9 Test CRC 48E446F0 Copy CRC 48E446F0 Accurately ripped (confidence 4) 0F595A95 Copy OK Track 7 Filename C:Hi there riaa, What's up ifpisophie.Hawkins Timbre (bonus disc- Home Demos) flac01 - You Turn Me On (demo).wav Pre-gap length 0:00:02.00 Peak level.9 Extraction speed.8 X Track quality 100.0 Test CRC B48882ED Copy CRC B48882ED Accurately ripped (confidence 2) 660DC46D (AR v2) Copy OK Track 2 Filename G:tempincomingripsSophie.Wav Pre-gap length 0:00:02.00 Peak level.4 Extraction speed.7 X Track quality 100.0 Test CRC A39282C0 Copy CRC A39282C0 Accurately ripped (confidence 2) 8E018364 (AR v2) Copy OK Track 10 Filename M:MusicripsSophie.Swing From Limb To Limb (My Home Is In Your Jungle) (04:15).Wav" wave index 01 00:00:00 track 13 audio title "Let Me Love You Up" performer "Sophie.Hawkins" index 01 00:00:00 file "03 - I Walk Alone (Demo).wav" wave track 03 audio title "I Walk Alone (Demo performer "Sophie.Flac Track gain : -6.02 dB Peak :.969360 CRC32 hash (test run) : 7C5A11AA CRC32 hash : 7C5A11AA CRC32 hash (skip zero) : 4CA16CE9 AccurateRip signature : 6410AB99 - Accurately ripped!She had her own clothes when she showed up to the photo session, but he had a dress he wanted her to try.




Sitemap